#TITLE:Holy ThunderForce;
#SUBTITLE:-Rhapsody song-;
#ARTIST:Magna Trickie;
#TITLETRANSLIT:;
#SUBTITLETRANSLIT:;
#ARTISTTRANSLIT:;
#CREDIT:;
#BANNER:HolyThunderforce-bn.png;
#BACKGROUND:holythunderforce-bg.png;
#LYRICSPATH:;
#CDTITLE:Magnakcd.png;
#MUSIC:07 - holy thunderforce.mp3;
#OFFSET:-0.300;
#SAMPLESTART:59.860;
#SAMPLELENGTH:12.000;
#SELECTABLE:YES;
#BPMS:0.000=180.000;
#STOPS:;
#BGCHANGES:;
// cache tags:
#FIRSTBEAT:0.000;
#LASTBEAT:768.500;
#SONGFILENAME:Songs/Music V.I.P ^_^/(Magna Trick) Holy Thunderforce/Holy thunderforce.sm;
#HASMUSIC:1;
#HASBANNER:1;
#MUSICLENGTH:261.781;
// end cache tags

//---------------dance-double - BASIC----------------
#NOTES:
     dance-double:
     BASIC:
     Easy:
     3:
     0.067,0.107,0.103,0.000,0.000,96.000,27.000,0.000,0.000,0.000:


00000000
00000000
00000000
00000000
,
00000000
00000000
00000000
00000000
,
00000000
00000000
00000000
00000000
,
00000000
00000000
00000000
00000000
,
00000000
01000000
00000000
00000000
,
00000000
00010000
00000000
00011000
,
00000000
00000000
00000000
00000000
,
00010000
00000010
00001000
00000100
,
00000000
00000000
00000010
00001000
,
00010001
00000100
01000000
00010010
,
10000000
00001000
00010000
01000000
,
00000000
00010000
00000000
00000000
,
00001000
00000000
00000010
00000110
,
00010001
00010000
00001000
01000010
,
00100000
00100000
10001000
00010000
,
01000000
00000000
00010000
00010000
,
00000000
00011000
00000000
00011000
,
00000010
00000000
00000100
00000000
,
00000010
00000010
00011000
00000001
,
01000100
00100010
10000000
00010000
,
01000000
00000000
00000000
00010000
,
00000000
00000000
00001000
00000000
,
00000010
00000100
00010001
00011000
,
00010100
00000000
00000100
00000000
01000000
00000100
10010000
00001000
,
01000000
00000000
01000000
01000000
00000000
00000000
00000000
00000000
,
00100000
00000000
00011000
00001000
,
00000000
00001000
00000000
00000100
,
00011000
00000001
00010100
00000010
,
01000000
00000100
00010000
00101000
,
00000000
00000000
00010000
00000000
,
00001000
00001000
00000000
00000010
,
00000100
00010100
00000001
00011000
,
01000010
00000000
00101000
00001000
,
01000000
01001000
00010000
10001000
,
00100000
01000000
00000000
00000000
,
00000000
00000000
00001000
00000000
,
00000100
00000010
00011000
00000001
,
00000000
00000000
00000000
00000100
00000000
00000000
00000000
00000000
,;

//---------------dance-double - ANOTHER----------------
#NOTES:
     dance-double:
     ANOTHER:
     Medium:
     5:
     0.111,0.132,0.191,0.000,0.000,146.000,50.000,0.000,0.000,7.000:


00000000
00000000
00000000
00000000
,
00000000
00000000
00000000
00000000
,
00000000
00000000
00000000
00000000
,
00000000
00000000
00000000
00000000
,
10000000
00000000
10000000
00100000
01000000
00000000
00100000
00000000
,
00010000
00000000
00010000
00000000
00000000
00001000
00000000
00001000
,
00000000
00000000
00000000
00000000
00000010
00001000
00000001
00000100
,
00000000
00000000
00000010
00000000
00011000
00000000
01000001
00010000
,
10000100
00000000
10000000
00100000
01000000
00001000
00010000
00000000
,
00000000
00000000
00000000
00000000
00010000
00001000
00000000
00001000
,
00000000
00000000
00000000
00000000
00000000
00000000
00001010
00010000
,
00000001
00000000
00000100
00000000
01000010
00001000
00110100
00000000
,
10001000
00100000
01000000
00010000
01001000
00000000
00010000
00000000
,
00000000
00010000
00000000
01000000
00010000
00000000
10011000
00000000
,
01000010
00011000
00000000
00000000
,
00000000
00011000
00000000
00010010
00000100
00000000
00011001
00000000
,
00000010
01000000
00100100
00000000
01000010
00010000
00100010
00000000
,
00011000
00000000
00010000
00000000
00000000
00000000
00000000
00001000
,
00000000
00000000
00010010
00000000
00001000
01000000
00101100
00000001
,
10001000
00100010
01000000
00010000
10001000
00010000
01000000
00000000
,
00100000
00000000
00000000
00000000
00000000
00000000
00000000
00001000
,
00001000
00000000
00000010
00001000
,
00010100
00001000
01000010
00000100
00000001
00011000
00000010
00000000
,
00010000
00001000
00000000
00000000
00101000
00000000
01000010
10000000
,
00010000
01000000
00001000
00000000
00100000
00010000
10000000
00000000
,
00100000
01000000
00001000
00010000
00000000
00000000
00000000
00000000
,
00000000
00000000
00001000
00000000
00000010
00001000
00010001
00000000
,
00000100
00000010
00001000
00010001
00000100
00000010
00110000
00000000
,
10000010
01001000
00100100
00010000
00101000
00000000
00010000
00000000
,
00000000
00010000
00000000
00100000
00010000
00000000
10011000
00000000
,
00100100
00011000
00000000
00000000
,
00000000
00011000
00000000
00010100
00000010
00000000
00011001
00000000
,
00000100
00100000
01000010
00000000
00100100
00010000
01000100
00000000
,
00011000
00000000
00010000
00000000
00000000
00000000
00000000
00001000
,
00000000
00000000
00010100
00000000
00001000
00100000
01001010
00000001
,
10001000
01000100
00100000
00010000
10001000
00000000
00010000
00000000
,
00000000
00000000
00000000
01000000
01000000
00000000
00000000
00000000
,;

//---------------dance-double - MANIAC----------------
#NOTES:
     dance-double:
     MANIAC:
     Hard:
     8:
     0.134,0.165,0.222,0.000,0.019,187.000,58.000,0.000,0.000,0.000:


00000000
00000000
00000000
00000000
,
00000000
00000000
00000000
00000000
,
00000000
00000000
00000000
00000000
,
00000000
00000000
00000000
00000000
,
00000000
01000000
00000000
00010000
00000000
00000000
00000000
00000000
,
00000000
00000000
00011000
00000000
00010010
00000000
01000100
00100001
,
00001000
10000010
10000000
10000100
00100000
01001000
00000000
00010000
,
00000000
00000000
00000000
00001000
,
00000010
00000000
00010010
00001000
00100001
00010100
10000010
01001000
,
00100100
00000000
00100000
00001000
01000000
00010000
00100000
00000000
,
00010000
00000000
00000000
00001000
00000000
00000000
00000000
00001000
,
00000000
00000010
00001000
00000001
00010100
00000000
00010100
00000010
,
01001000
00000001
00010100
00000010
00100000
00000000
00011000
00000000
,
01000000
00001000
01000000
00101000
10000000
00011000
00100000
01001000
,
00010000
00000000
00000000
00000000
,
00010000
00000010
00011000
00000001
00000100
00000000
00000100
00000010
,
00010000
00000100
01000000
00100010
10001000
01000001
00100100
00000010
,
00010000
00001000
00000000
00000000
00010000
00000000
00000000
00001000
,
00000000
00001000
00010010
00001000
00100000
00000100
01001000
00010001
,
10000100
00000010
10000000
00101000
01000000
00011000
10000000
00100000
,
01000000
01000000
00100000
00100000
,
00010000
00000000
00000000
00001000
00000000
00000000
00000000
00001000
,
00000000
00010010
00001000
00100001
00010100
10000010
00101000
01000000
,
00010100
00000000
10000000
00000000
00101000
01000000
00100000
01000000
00010000
00000000
01000000
00000000
00000000
00000000
00100000
00000000
,
00000000
00010000
00000000
00000000
00000000
00000000
00001000
00000000
,
00001000
00000000
00000000
00010000
00000100
01000000
00010000
00100000
00010010
00000000
10000001
00000000
00101000
00000000
00000000
00000000
,
00000010
00001000
00010100
00000000
01001000
00000000
00000000
00000000
00100000
00000000
10000000
00000000
00010000
00000000
00000000
00000000
,
01001000
00010000
00100000
00000000
00010000
00000000
00000000
00000000
00000000
00000000
00000000
00000000
00000000
00000000
00000000
00000000
,
00000000
00000000
00010000
00001000
00000000
00000010
00011000
00000100
00001000
00000000
00010001
00000000
00000100
00000000
00010000
00000000
,
00000010
00001000
00000100
00001000
,
00000100
00100000
00010100
10000010
01000001
00001000
01000010
00100100
,
00001000
01000000
00000000
00100000
00010000
10000000
01000000
00100000
,
00001000
00010000
00001000
00000000
00000000
00000000
00000000
00010000
,
00001000
00010000
00100100
00010010
00000001
01000100
00010010
10000000
,
01001000
00100000
00000000
00010000
00001000
00010000
00000000
00000000
,
00000000
00000000
00001000
00000000
00000010
00000000
00000100
00001000
,
00000001
00000000
00000001
00010010
00000100
00001000
00000001
00000010
,
00000000
00000000
00001000
00000000
,;

//---------------dance-couple - BASIC----------------
#NOTES:
     dance-couple:
     BASIC:
     Easy:
     4:
     0.154,0.301,0.298,0.000,0.042,192.000,78.000,0.000,0.000,12.000:


00000000
00000000
00000000
00000000
,
00000000
00000000
00000000
00000000
,
00000000
00000000
00000000
00000000
,
00000000
00000000
00000000
00000000
,
00000000
00000000
00000000
00000000
,
00000000
00001000
00000000
00000010
00000100
00000001
00001000
00000010
,
00000000
10000100
00000000
00100100
01000001
00011000
10000001
00100100
,
00000000
01000000
00000000
01000000
00010000
10000000
00010000
01000000
,
00000000
00000000
00000000
00000000
,
00000000
00100010
00000000
10001000
00000000
00010001
01000100
00100010
,
00000000
01000000
00000000
00100000
00000000
10000000
00010000
01000000
,
00100000
10000100
00100000
10000010
00010000
00001000
10010001
00000100
,
00100010
00001000
01000010
00001000
00010001
01000000
00011001
01000000
,
00100000
10000000
01010000
11000001
,
00010000
00000000
10000000
00000000
00100001
10000000
00100001
10000000
,
00010000
01000000
00110000
10100001
,
00000000
00000000
00000001
10000001
,
00000100
00000000
00000010
00000000
10001000
00000010
10001000
00000010
,
00000100
00000001
00001010
10000011
,
00001000
00000000
00000001
00000000
10000100
00000001
10000100
00000001
,
00011000
00000000
00010010
00000000
10001100
00000000
00100101
01000000
,
00011000
10000000
00011000
10000000
00100001
01000000
00010010
10000100
,
00001000
00000001
00001000
00000001
00000010
00000100
00001000
00000001
,
00100100
00100100
00100100
00100100
,
00000000
00000000
00000000
00000000
,
00001000
00000010
00001000
00000010
00001000
00000100
00001000
00000100
00001000
00000010
00001000
00000010
00001000
00000001
00001000
00000001
,
00010010
00100100
00010010
00100001
00010010
01000100
00010010
01000001
00011000
00100010
00010100
00100001
00011000
10000000
00010000
10000000
,
00100000
01000000
00100000
10000000
00100000
01000000
00100000
10000000
00010000
00100000
01000000
10000000
00010000
00000000
00000000
00000000
,
00000000
01000000
00000000
01000000
,
00000010
00000000
01000100
00000000
00000001
00000100
01000001
00000100
,
00000010
01001000
00000101
01001100
,
00000001
00000000
01001000
00000000
01000010
00001000
01000010
00001000
,
01000001
00000000
00100100
00000000
10000011
00100000
10001010
00100000
,
01000000
00010100
10100000
00110100
,
10000000
00000000
00010100
00000000
01000000
00010000
01000100
00010000
,
10000000
00100100
11000000
01010100
,
10000000
00000000
00000010
00010000
01000010
00000000
00000010
00000000
,
00001000
00000000
00000000
00000001
00000100
00000000
00000000
00000000
,;

//---------------dance-single - ----------------
#NOTES:
     dance-single:
     :
     Challenge:
     14:
     1.000,1.000,1.000,0.046,1.000,1692.000,336.000,12.000,0.000,0.000:
1000
0001
1000
0000
0100
1000
0001
0011
,
0100
0000
0110
0000
0100
1000
0010
0101
,
1010
0000
1100
0000
0000
0011
0000
1100
,
1010
0000
0000
0000
0101
0000
0000
0000
0000
0000
0000
0000
0000
0000
1001
0100
,
0010
0001
0010
0100
1000
0100
0010
0001
0100
0010
1000
0100
1010
0001
1010
0100
,
0010
0001
0010
0100
1000
0010
0100
0001
0100
0010
0100
0001
0010
0000
1001
0000
,
0110
0000
1001
0000
0000
1100
0000
0011
,
0011
0000
0000
0000
0110
0000
0000
0000
0001
1000
0001
1000
0001
0000
0100
1000
,
0010
1000
0010
0100
0001
0100
0010
1000
0001
1000
0010
0100
0010
1000
0100
1000
,
0100
0010
0001
0010
0001
1000
0100
0010
0001
0100
1000
0001
0010
0000
1001
0000
,
0110
0000
0110
0000
0000
1001
0000
1100
,
0011
0000
0000
0000
0110
0000
0000
0000
0000
0000
1001
0000
0000
0000
0100
1000
,
0010
1000
0100
0010
0001
0100
1000
0100
0001
0100
0010
1000
0001
1000
0010
1000
,
0100
0010
0001
0100
0010
1000
0001
0010
0100
0010
0001
0010
0100
0000
1001
0000
,
1001
0000
0101
0000
0000
1001
0000
0110
,
0110
0000
0000
0000
0011
0000
0000
0000
0000
0000
0000
0000
0000
0000
0010
0001
,
0010
0100
1001
0100
0010
0001
0010
0001
1100
0010
0001
0100
0010
1000
0011
0100
,
1000
0001
0110
1000
0001
0010
1100
0000
0000
0000
1000
0001
1000
0001
0110
1000
,
0001
0010
0100
0010
1001
0010
0100
0001
1000
0010
1100
0010
0100
1000
0011
0000
,
0000
0000
0000
0000
0000
0000
0110
0000
0000
0000
0000
0000
0000
0000
0001
1000
,
0001
0100
1001
0100
0010
0001
0010
1000
0110
1000
0001
0010
0100
0010
1001
0100
,
0010
0001
1100
0000
0000
0000
0011
0000
0000
0000
0010
0100
1000
0001
0110
1000
,
0001
0100
0010
0100
1001
0100
0010
1001
0100
0001
0110
0000
0000
0000
1010
0000
,
0000
0000
1001
0000
0000
1100
0000
0011
,
0000
0000
0000
0110
0000
0000
0000
1001
,
0000
0000
0000
0000
0000
0000
0000
1001
,
0010
0001
0010
0001
0000
1100
0000
0011
,
1000
0010
1000
0001
0000
0101
0000
0010
,
0000
1100
0000
0001
0000
0110
0000
1001
,
0000
0110
0000
0001
1000
0001
1000
1001
,
0100
0001
0010
1000
0000
0110
0000
0101
,
1000
0010
0100
1000
0000
0101
0000
0011
,
0000
1000
0000
0101
0000
0010
0000
0210
,
0000
0000
0000
0000
0300
0000
0000
0101
,
1000
0010
0100
1001
0010
0100
1000
0101
,
0010
0001
0010
1100
0000
1100
0000
0110
,
0000
1100
0000
0011
0000
0110
0000
1001
,
0000
0110
0000
0001
1000
0001
1000
0011
,
0100
0001
1000
1100
0010
0001
1000
1100
,
0010
0001
0010
1001
0100
0011
0000
1010
,
0000
1000
0000
0100
0000
0010
0000
1001
,
0000
0000
0000
0000
0001
1000
0001
1000
0001
1000
0001
1000
0001
1000
0101
0010
,
0100
0010
0001
0010
0100
1000
0011
0100
0001
1000
0010
1000
0100
0010
1001
0100
,
1000
0100
0001
1000
0001
1000
0110
1000
0100
0010
0001
0010
1000
0100
0010
0000
,
0000
0001
0000
1000
0000
0100
0000
1001
,
0000
0000
0001
0000
0100
0000
0100
0000
0000
0000
0001
0010
0100
1000
0011
1000
,
0100
0010
0001
0100
0010
0100
0011
1000
0010
1000
0100
0010
0001
0010
0101
1000
,
0010
0100
0001
1000
0010
1000
0101
0010
0001
0100
0010
1000
0100
0010
0001
0000
,
0000
0100
0000
0010
0000
1001
0000
1100
,
0000
0001
0000
0110
0000
1001
0000
0010
,
0000
0000
1001
0000
0000
0000
1100
0000
0000
0000
0011
0000
0000
0000
0100
0001
,
0010
0001
1010
0001
0010
0001
0010
0100
1001
0100
1000
0010
1000
0001
1100
0010
,
0100
0001
1010
0000
0000
0000
0110
0000
0000
0000
0100
1000
0100
1000
0101
1000
,
0001
0010
0001
0010
0101
1000
0010
0100
0001
1000
0011
1000
0100
1000
0011
0000
,
0000
0000
0000
0000
0000
0000
1100
0000
0000
0000
0000
0000
0000
0000
0001
0010
,
0100
1000
0011
1000
0100
0010
0001
0100
1001
0100
0001
0010
0100
0010
0101
1000
,
0010
0100
0011
0000
0000
0000
1001
0000
0000
0000
0100
1000
0010
1000
0101
0010
,
0001
0100
0010
1000
0101
1000
0001
0010
0100
0010
1001
0010
0100
1000
0110
0000
,
0000
0000
1001
0000
0000
1100
0000
0011
,
0000
0000
0000
0110
0000
0000
0000
2002
,
0000
0000
0000
0000
3003
0000
0000
1001
,
1000
0100
0010
0001
0000
0110
0000
0101
,
1000
0010
0100
0001
0000
1100
0000
0001
,
0000
0110
0000
1000
0000
0011
0000
1010
,
0000
0110
0000
0001
1000
0100
0001
1010
,
0100
0001
1000
0100
0000
0011
0000
0110
,
0100
1000
0010
0100
0000
1000
0000
0101
,
0000
1010
0000
1100
0000
0011
0000
1001
,
0000
0000
0000
0000
0001
1000
0100
0000
0100
1000
0100
1000
0100
0000
1001
0000
,
0100
0010
0001
0110
0001
0010
0100
1100
,
0001
0100
1000
0110
0001
0100
0010
1001
,
0010
0100
1000
0011
0100
1000
0100
1001
,
0010
1001
0000
0100
0010
0001
0010
1001
,
0100
1000
0010
0101
0100
1000
0010
0101
,
0100
0010
0001
1001
0010
1000
0010
0101
,
0000
1010
0000
1100
0000
0011
0000
0220
,
0000
0000
0330
0000
0001
1000
0001
1000
0001
0000
0001
1000
0100
1000
0110
1000
,
0100
0010
0100
0010
0100
0010
1100
0010
0001
0010
0100
1000
0010
0100
1001
0100
,
0010
1000
0001
1000
0010
1000
0101
0010
0001
0100
0010
1000
0001
0010
1100
0000
,
0000
1000
0000
0010
0000
0100
0000
1000
,
0000
0000
1000
0000
0100
0000
0011
0000
0000
0000
0001
0000
1000
0000
1100
0010
,
0001
0010
0100
1000
0010
1000
0101
0010
0001
0100
1000
0100
0010
0001
1010
0100
,
0010
0001
0100
0010
0100
1000
0101
0010
0100
0010
0001
1000
0010
0100
1001
0000
,
0000
1000
0000
0101
0000
0010
0000
0011
,
0000
0110
0000
1100
0000
0110
0000
1100
,
0000
0001
0000
0010
0000
1000
0000
0100
,
0010
0001
0010
0000
0100
1000
0010
1100
,
0101
0000
1010
0000
0010
1000
0100
0011
,
1010
0110
1001
0000
1010
1100
0000
1001
,
0110
0000
0000
0000
0011
0000
0000
0000
0000
0000
0000
0000
0010
0001
1010
0100
,
1000
0010
0100
1000
0001
0010
0100
0001
1000
0010
0001
0100
1000
0001
1010
0100
,
1010
0001
0010
0100
1000
0100
0001
0010
1000
0100
0010
0001
0100
0010
1100
0000
,
1100
0000
1000
0000
1000
0100
0000
0010
,
0001
0000
0000
0000
0110
0000
0000
0000
1000
0100
0010
0001
1000
0100
0010
0001
,
0100
0010
1000
0100
0001
0100
1000
0010
1000
0010
0001
0100
1000
0010
0001
0010
,
0001
0100
1000
0100
1000
0001
0100
0001
0100
0010
1000
0100
1000
0000
0110
0000
,
0101
0000
1000
0000
0011
1001
0000
1010
,
0101
0000
0000
0000
0110
0000
0000
0000
0000
0000
0000
0000
0000
0000
0001
1000
,
0100
0010
0001
0010
0100
1000
0100
0001
0010
0001
0010
0100
1000
0010
0100
0010
,
0100
0001
1000
0001
1000
0010
0001
0010
0001
1000
0100
1000
0100
0000
0110
0000
,
0110
0000
0001
0000
0100
1100
0000
0001
,
0011
0000
0000
0000
0000
0000
0110
0000
0000
0000
0000
0000
0000
0000
0000
0000
0000
0000
0000
0000
0000
0001
0000
1000
,
0000
0100
0000
0010
0000
0001
0000
0010
0000
0100
0000
0000
1000
0000
0000
0010
0000
0000
0000
0000
0000
0010
0000
0100
,
0000
1000
0000
0100
0000
0001
0000
1000
0000
0100
0000
0000
1000
0000
0000
0001
0000
0000
0000
0000
0000
0001
0000
1000
,
0000
0100
0000
0010
0000
0001
0000
0010
0000
0100
0000
1000
0000
0010
0000
0100
0000
1000
0000
0100
0000
0001
0000
1000
,
0000
0010
0000
1000
0000
0100
0000
0010
0000
0001
0000
0100
0000
1000
0000
0100
0000
0010
0000
1000
0000
0001
0000
1000
,
0000
0100
0000
0010
0000
0001
0000
0010
0000
0100
0000
1000
0000
0010
0000
0100
0000
1000
0000
0100
0000
0001
0000
1000
,
0000
0010
0000
1000
0000
0100
0000
0010
0000
0001
0000
0010
0000
0100
0000
1000
0000
0001
0000
0100
0000
0002
0000
0000
,
0000
0000
0000
0000
0000
0000
0010
0000
0000
0010
0000
0000
0000
0003
0000
0000
0000
0000
0100
0000
0000
0010
0100
0010
,
0000
1000
0001
1000
0000
0000
0001
0010
,
0100
1000
0010
1001
0000
0000
0001
0100
,
1000
0000
0100
0000
0001
0000
2002
0000
3003
0000
0000
0000
0001
1000
0001
1000
,
0001
1000
0001
1000
0001
1000
0101
0010
0001
0010
0100
1000
0010
1000
0101
0010
,
0001
0100
0010
0100
0010
1000
0101
1000
0100
0010
0001
0010
0001
1000
0101
0010
,
0001
0100
0010
1000
0100
0010
1001
0100
0010
0100
0010
0001
1000
0001
1000
0100
,
0010
0100
0010
0001
0100
0010
0100
1000
0001
0100
0001
0100
0010
1000
0010
1000
,
0001
0100
0010
0100
0001
1000
0011
0100
0001
1000
0001
0100
0001
1000
0011
1000
,
0100
0010
0001
1000
0100
0010
0101
0010
0001
0100
1000
0100
0010
0001
0011
1000
,
0001
0000
1000
0000
0010
0000
0100
0000
0010
0000
0100
0000
1000
0100
0010
0001
1000
0100
0010
0001
1000
0100
0010
0001
1000
0100
0010
0001
1000
0100
0010
0001
,
0100
0010
1000
0001
0010
0100
1000
0001
0010
0100
1000
0001
0010
0100
1000
0001
0010
0100
1000
0001
0010
0100
1000
0001
0010
0100
1000
0001
0010
0100
1000
0001
,
1000
0001
1000
0001
1000
0001
1000
0001
1001
0001
1000
0100
0010
0001
0010
0100
1000
0100
0010
0001
0010
0100
1000
0100
0010
0010
0010
0010
0010
0010
0010
0010
,
0010
0000
0000
0000
0000
0000
0010
0000
0000
0000
0000
0000
0010
0000
0000
0000
0000
0000
0010
0000
0000
0000
0000
0000
0010
0000
0000
0000
0000
0000
0010
0000
0000
0000
0000
0000
0010
0000
0000
0000
0000
0000
0010
0000
0000
0000
0000
0000
0010
0000
0000
0000
0000
0000
0010
0000
0000
0000
0000
0000
0010
0000
0000
0000
0000
0000
0010
0000
0000
0000
0000
0000
0010
0000
0000
0000
0000
0000
0000
0000
0000
0000
0000
0000
0000
0000
0000
0000
1000
0000
0000
0000
0000
0000
0000
0000
0000
0000
0000
0000
0000
0000
0000
0000
0100
0000
0000
0000
0000
0000
0000
0000
0000
0000
0000
0000
0000
0000
0000
0000
1000
0000
0000
0000
0000
0000
0000
0000
0000
0000
0000
0000
0000
0000
0000
0000
0000
0000
0000
0000
0000
0000
0000
0000
0000
0000
0000
0000
0000
0000
0000
0000
0000
0000
0000
0000
0000
0000
0000
0000
0000
0000
0000
0000
0000
0000
0000
0000
0010
0000
0000
0000
0000
0000
0000
0000
0000
0000
0000
0000
0000
0000
0000
0000
0000
0000
0000
0000
0000
0000
0000
0000
,
1000
0000
0000
0100
0000
0000
0000
0000
0000
0001
0000
0010
0000
0100
0000
0010
0000
0000
0000
0000
0000
0001
0000
0000
,
1000
0000
0000
0010
0000
0000
0000
0000
0000
0001
0000
0010
0000
0100
0000
1000
0000
0010
0000
1000
0000
0100
0000
0010
,
0000
0001
0000
0100
0000
1000
0000
0100
0000
0001
0000
1000
0000
0010
0000
1000
0000
0100
0000
0010
0000
0001
0000
0100
,
0000
0010
0000
1000
0000
0100
0000
0010
0000
0001
0000
0100
0000
0010
0000
1000
0000
0001
0000
1000
0000
0010
0000
1000
,
0000
0100
0000
0010
0000
0001
0000
0100
0000
0010
0000
1000
0000
0001
0000
1000
0000
0010
0000
1000
0000
0100
0000
0010
,
0000
0001
0000
0100
0000
0010
0000
1000
0000
0100
0000
0000
0000
0000
0000
0000
0000
0001
0000
0000
0000
1100
0000
0000
,
0000
0000
0010
0000
0100
0000
1000
0001
0010
0000
0100
0000
1100
0000
0011
0000
,
0000
0000
0000
0000
0001
0000
1000
0100
0010
0000
0001
0000
0110
0000
1100
0000
,
0000
0000
0000
0000
0100
0000
1000
0010
0100
0000
1000
0000
0110
0000
1001
0000
,
0000
0000
0001
1000
0001
1000
0001
1000
0001
1000
0001
0000
0000
0000
0110
0000
,
1000
0001
1000
0100
0000
0011
0000
1100
,
0010
0001
1000
0010
0000
0101
0000
0010
,
0000
1100
0000
0001
0000
1010
0000
0100
,
0000
1000
0000
0011
0100
1000
0100
1001
,
0001
1000
0100
1001
0000
0110
0000
1001
,
0010
0100
1000
0010
0000
1100
0000
0001
,
0000
1000
0000
0010
0000
1100
0000
0011
,
0000
0100
0000
0011
0010
0011
0100
0011
,
0100
1000
0010
0101
1000
0100
0001
1010
,
0100
0010
0001
0110
1000
0010
0100
1001
,
0000
0010
0000
0101
0000
1000
0000
0101
,
0000
0010
0000
1000
0100
1000
0100
0011
,
0001
0010
1000
0011
0100
1000
0010
0101
,
1000
0100
0001
1001
0000
0100
0000
0011
,
0000
0110
0000
1001
0000
0110
0000
1100
,
0000
0000
0000
0000
0000
0000
0000
0000
0000
0000
0001
0000
1000
0000
0110
0001
,
0010
0001
0010
0100
1000
0010
1001
0100
0010
0001
0100
0010
1000
0001
1100
0010
,
1000
0100
0010
0001
0100
1000
0101
0010
1000
0001
1000
0010
0001
0100
1001
0000
,
0000
0010
0000
0100
0000
1000
0000
0001
,
0000
0000
0010
0000
0010
0000
0010
0000
0000
0000
0010
0000
1000
0000
1100
0010
,
0001
0010
0100
1000
0010
1000
0101
0010
0001
0100
1000
0100
0010
1000
0101
1000
,
0010
1000
0100
0010
0001
0010
0101
1000
0010
0100
0001
1000
0010
1000
0101
0000
,
0000
0011
0000
0110
0000
1001
0000
0010
,
0000
0100
0000
0001
0000
1000
0100
1000
,
0000
0011
0000
0110
0000
0001
0000
1001
,
0100
1000
0100
0011
0000
0001
0010
0101
,
1000
0010
0100
1001
0000
1000
0100
1001
,
0000
0100
0000
0011
0000
0100
0000
1001
,
0000
0010
0010
0010
0000
0001
1000
1100
,
0010
0001
0010
0101
1000
0010
0100
1001
,
0100
0001
1000
0101
0000
0100
0010
1001
,
0000
0010
0000
0100
0000
1000
0000
0020
,
0000
0000
0000
0000
0000
0000
0000
2000
,
0000
0000
0000
0000
0000
0000
0000
0000
0000
0000
3030
0000
0000
0000
1001
0010
,
0100
0001
1000
0010
0100
0001
1100
0010
1000
0100
0010
0001
0010
0100
1001
0010
,
1000
0100
0010
0001
0100
1000
0101
0010
1000
0001
1000
0010
1000
0100
0011
0000
,
0000
0001
0000
0010
0000
0100
0000
1000
,
0000
0000
0010
0000
0010
0000
0010
0000
0000
0000
0001
0000
1000
0000
1001
0100
,
0001
0010
0001
0010
0100
1000
0011
1000
0100
0010
0001
0010
0100
1000
0011
0100
,
0001
0100
1000
0100
0010
1000
0101
1000
0010
1000
0100
0010
0001
0010
1100
0000
,
0000
1000
0000
0010
0000
1001
0000
0110
,
0000
1100
0000
0011
0000
0110
0000
1100
,
0000
0010
0000
0100
0000
0001
0000
1000
,
0100
0010
0001
0000
0010
0100
1000
0010
,
0100
1000
0100
0000
0001
1000
0100
0011
,
0011
0000
0010
0000
0010
0100
0000
1000
,
0001
0000
0000
0000
1001
0000
0000
0000
0000
0000
0000
0000
0000
0000
0100
1000
,
0001
0010
0100
1000
0010
1000
0100
0010
0001
0100
0010
0100
0001
0100
0010
1000
,
0001
1000
0010
1000
0100
0010
0001
0010
0100
1000
0010
0100
0001
1000
0010
0000
,
0110
0000
0110
0000
1001
1001
0000
1001
,
0110
0000
0000
0000
0110
0000
0000
0000
0000
0000
0000
0000
0000
0000
0001
0010
,
0100
1000
0010
0100
0001
0100
1000
0010
0100
0001
1000
0100
0010
0100
0011
1000
,
0011
0100
1000
0100
0010
0001
0100
0010
1000
0100
0010
0001
0010
0001
1100
0000
,
0011
1100
0011
0000
0001
1000
0000
0010
,
1000
0000
0000
0000
1100
0000
0000
0000
0000
0000
0000
0000
0000
0000
0001
0010
,
0100
1000
0010
1000
0100
0010
0001
0100
1000
0100
0010
1000
0001
0100
0011
0100
,
0011
1000
0001
1000
0100
0010
0001
0010
1000
0100
1000
0010
0100
0001
1010
0000
,
0101
0000
0110
0000
0110
1100
0000
1001
,
1001
0000
1001
0000
0000
0100
0010
0001
,
1010
0000
0110
0000
0000
0001
0100
2020
,
0000
3030
0000
0000
0000
0000
0000
0000
;
